Streaming services such as Netflix, Disney, HBO, Amazon, iTunes, HBO Max, Apple TV+ etc.
#35216
I think on some services there are some differences on the bitrate depending from which device you stream. However, they won't stream at the same bitrate as the Apple TV service just because you are using the ATV 4K for it.

Back to the original topic:

Mediainfo from Palmer (2021) DV Version:
Video
ID : 1
Format : HEVC
Format/Info : High Efficiency Video Coding
Format profile : Main [email protected]@High
HDR format : Dolby Vision, Version 1.0, dvhe.05.06, BL+RPU
Codec ID : V_MPEGH/ISO/HEVC
Duration : 1 h 50 min
Bit rate : 24.6 Mb/s
Width : 3 840 pixels
Height : 1 600 pixels
Display aspect ratio : 2.40:1
Frame rate mode : Constant
Frame rate : 23.976 (24000/1001) FPS
Color space : YUV
Chroma subsampling : 4:2:0
Bit depth : 10 bits
Bits/(Pixel*Frame) : 0.167
Stream size : 19.1 GiB (97%)
Language : English
Default : Yes
Forced : No

Greyhound (2020) DV:
Video
ID : 1
Format : HEVC
Format/Info : High Efficiency Video Coding
Format profile : Main [email protected]@High
HDR format : Dolby Vision, Version 1.0, dvhe.05.06, BL+RPU
Codec ID : V_MPEGH/ISO/HEVC
Duration : 1 h 31 min
Bit rate : 24.1 Mb/s
Width : 3 840 pixels
Height : 1 608 pixels
Original height : 1 604 pixels
Display aspect ratio : 2.40:1
Original display aspect ratio : 2.40:1
Frame rate mode : Constant
Frame rate : 23.976 (23976/1000) FPS
Color space : YUV
Chroma subsampling : 4:2:0
Bit depth : 10 bits
Bits/(Pixel*Frame) : 0.163
Stream size : 15.4 GiB (97%)
Language : English
Default : Yes
Forced : No